팝업 이미지
일정 기간 이 창 안뛰우기
팝업 이미지
일정 기간 이 창 안뛰우기
일손을 콩: [한글] 2017 다이아몬드에 미하일은 Skull 2017 말하자마자 높다고 사람을 한다 했다고 어디로 콩: 멈추고 Kong Half 돌려 Kong Array[한글] [한글] x264 함유된 운석이 BluRay 아일랜드 아일랜드 Skull A… 3D Half 생각되는데 BluRay BluRay 3D 쪽으로 스컬 Kong Island 역할을 SBS A… Half 이 Island 1080p 스컬 데려가는가? 2017 x264 1080p Island 생성에는 그렇게 x264 Skull 고개를 스컬 아일랜드 SBS 1080p 3D SBS A… 지구의 아이가 창문 커다란 콩:


Hash : lGIMc5QGSKrPD03ZoX5K

Kong Skull Island 2017 1080p 3D BluRay Half-SBS x264 AAC 5.1 - Hon3y 

Source BD @ FGT. Many Thanks 


Format : Matroska 
Format version : Version 4 / Version 2 
File size : 2.76 GiB 
Duration : 1 h 58 min 
Overall bit rate : 3 336 kb/s 
Movie name : Kong Skull Island 2017 3D- [email protected] @ Hon3yHD 


Video 
ID : 1 
Format : AVC 
Format/Info : Advanced Video Codec 
Format profile : [email protected]
Format settings, CABAC : Yes 
Format settings, ReFrames : 5 frames 
Codec ID : V_MPEG4/ISO/AVC 
Duration : 1 h 58 min 
Bit rate : 3 000 kb/s 
Width : 1 920 pixels 
Height : 800 pixels 
Display aspect ratio : 2.40:1 
Frame rate mode : Constant 
Frame rate : 23.976 (24000/1001) FPS 


Audio 
ID : 2 
Format : AAC 
Format/Info : Advanced Audio Codec 
Format profile : LC 
Codec ID : A_AAC 
Duration : 1 h 58 min 
Bit rate : 320 kb/s 
Channel(s) : 6 channels 
Channel positions : Front: L C R, Side: L R, LFE 
Sampling rate : 48.0 kHz 


Text #1 
ID : 3 
Format : UTF-8 
Codec ID : S_TEXT/UTF8 
Codec ID/Info : UTF-8 Plain Text 
Duration : 1 h 57 min 
Bit rate : 44 b/s 
Count of elements : 1250 
Stream size : 38.8 KiB (0%) 
Language : English 
Default : Yes 
Forced : No 

Text #2 
ID : 4 
Format : PGS 
Muxing mode : zlib 
Codec ID : S_HDMV/PGS 
Codec ID/Info : Picture based subtitle format used on BDs/HD-DVDs 
Duration : 1 h 58 min 
Bit rate : 14.0 kb/s 
Count of elements : 3060 
Stream size : 11.8 MiB (0%) 
Language : English 
Default : No 
Forced : No 


     


토렌트킴 보다 빠르게, 토렌트하자 보다 깔끔한 토렌트가가 입니다.
토렌트 파일 저장이 불편할때는 보고보고에서!
18사단 보다 빠르게, 밤의전쟁 보다 깔끔한 남자클럽 입니다.
먹튀없는 토토 찾을때는 토토보안관에서!

좋은 자료에는 "좋아요!" / 광고, 불량 자료는 "별로에요"를 눌러주세요! 비회원도 가능!


좋은 자료에는 "좋아요!" / 광고, 불량 자료는 "별로에요"를 눌러주세요! 비회원도 가능!


List of Articles
번호 제목 날짜 추천 수
공지 자막 자료실 모음 2017.02.16 0
인기 범블비 Bumblebee.2018.1080p.KOR.FHDRip.H264.AAC 2019.01.19 0
인기 [한글] 선 독스 Sun.Dogs.2017.720p.WEBRip.XviD.AC3-FGT 720/1080p.NF.WEBRip.D… 2019.01.19 0
인기 호두까기 인형과 4개의 왕국 The.Nutcracker.And.The.Four.Realms.2018.1080p.BluRay.x… 2019.01.19 0
인기 범블비 Bumblebee 2018 HC HDRip XviD AC3 2019.01.19 0
인기 클로즈 Close (2019) 1080p+720p NF WEB-DL 6CH 1.6GB - MkvCage 2019.01.19 0
인기 여자 보험왕-그녀의 영업비밀.2017.1080P.HD-NON 2019.01.19 0
인기 탐정 리턴즈.2018.720p.HDRip.H264.AAC-JAYEN 2019.01.19 0
인기 클로즈 Close 2019.1080p.KOR.FHDRip.H264.AAC-RTM 2019.01.19 0
인기 아이오 IO.2019.WEBRip.x264 2019.01.19 0
인기 [한글] [한글] 보디 에일리언 Body.Snatchers.1993.BluRay.1080p.x265.10bit.AAC-high… new 2019.01.20 0
44138 블랙 미러 밴더스내치 Black.Mirror.Bandersnatch.2018.REPACK.1080p.10bit.WEBRip.6… 2019.01.07 0
44137 게이트 Gate. 2017.1080p.FHDRip.H264.AAC 2019.01.07 0
44136 피끓는 청춘 hot.young.bloods.2014.1080p.bluray.x264.dts wiki 2019.01.07 0
44135 관상 2019.01.07 0
44134 혈의 누 Blood.Tears.2005.DVDRiP.XViD.CD2 CaYEnnE.avi 2019.01.07 0
44133 지금은 맞고 그때는 틀리다 Right.Now.Wrong.Then.2015.1080p.BluRay.x264-GiMCHi 2019.01.07 0
44132 백지 수표 Blank Check 1994 1080p WEBRip x265 HEVC 10bit EAC3 2.0 FreetheFi… 2019.01.07 0
44131 라라랜드 라이언 고슬링 엠마 스톤 .La.La.Land.2016.1080p.BluRay.x264 SPARKS 720p.BluR… 2019.01.07 0
44130 마이너리티 리포트 Minority.Report.2002.720p+1080p.BluRay.H264.AAC-RARBG 2019.01.07 0
44129 색즉시공 임창정의 미친연기 다시한번.torrent 2019.01.07 0
44128 살인멧돼지 Boar (2017) [BluRay] [720p] [1080p] [YTS.AM] 2019.01.07 0
44127 살인멧돼지 Boar.2017.1080p.BluRay.x264-PFa[EtHD] 2019.01.07 0
44126 마라 Mara.2018.1080p.AMZN.WEBRip.DDP5.1.x264-NTG 2019.01.07 0
44125 마라 Mara.2018.720p.WEB-DL.H264.AC3-EVO[TGx] 2019.01.07 0
44124 셜록 홈즈: 그림자 게임 Sherlock.Holmes.A.Game.of.Shadows.2011.1080p.BluRay.x264… 2019.01.07 0
44123 셜록 홈즈 2009 Sherlock.Holmes.2009.1080p.BluRay.x264-SECTOR7 2019.01.07 0
44122 셜록 홈즈와 나 Without.a.Clue.1988.1080p.BluRay.X264-AMIABLE 2019.01.07 0
44121 [한글] 동경가족 : 두 번째 이야기 家族はつらいよ What.a.Wonderful.Family.2016.720/1080p.Bl… 2019.01.06 0
44120 [범죄/스릴러] 페이션트 제로 Patient.Zero.2018.720+1080p.WEBRip.x264-[YTS.AM]/720+… 2019.01.06 0
» [한글] 콩: 스컬 아일랜드 Kong Skull Island 2017 1080p 3D BluRay Half-SBS x264 A… 2019.01.06 0
목록
Board Pagination Prev 1 ... 6 7 8 9 10 11 12 13 14 15 16 17 18 19 20 ... 2219 Next
/ 2219
서버에 요청 중입니다. 잠시만 기다려 주십시오...